Hao4K影音

怒海战舰(台) / 雷霆战舰:猎犬号(港) / 灰狗/灰猎犬号4K Greyhound.2020.2160p.ATVP.WEB-DL.x265.10bit.HDR.DDP5.1.Atmos电影信息
  1. Video
  2. ID : 1
  3. Format : HEVC
  4. Format/Info : High Efficiency Video Coding
  5. Format profile : Main 10@L5@High
  6. HDR format : SMPTE ST 2086, HDR10 compatible
  7. Codec ID : V_MPEGH/ISO/HEVC
  8. Duration : 1 h 31 min
  9. Bit rate : 23.9 Mb/s
  10. Width : 3 840 pixels
  11. Height : 1 604 pixels
  12. Display aspect ratio : 2.40:1
  13. Frame rate mode : Constant
  14. Frame rate : 23.976 (23976/1000) FPS
  15. Color space : YUV
  16. Chroma subsampling : 4:2:0 (Type 2)
  17. Bit depth : 10 bits
  18. Bits/(Pixel*Frame) : 0.162
  19. Stream size : 15.3 GiB (97%)
  20. Language : English
  21. Default : Yes
  22. Forced : No
  23. Color range : Limited
  24. Color primaries : BT.2020
  25. Transfer characteristics : PQ
  26. Matrix coefficients : BT.2020 non-constant
  27. Mastering display color primaries : Display P3
  28. Mastering display luminance : min: 0.0001 cd/m2, max: 1000 cd/m2
  29. Maximum Content Light Level : 1044 cd/m2
  30. Maximum Frame-Average Light Level : 217 cd/m2

  31. Audio
  32. ID : 2
  33. Format : E-AC-3 JOC
  34. Format/Info : Enhanced AC-3 with Joint Object Coding
  35. Commercial name : Dolby Digital Plus with Dolby Atmos
  36. Codec ID : A_EAC3
  37. Duration : 1 h 31 min
  38. Bit rate mode : Constant
  39. Bit rate : 768 kb/s
  40. Channel(s) : 6 channels
  41. Channel layout : L R C LFE Ls Rs
  42. Sampling rate : 48.0 kHz
  43. Frame rate : 31.250 FPS (1536 SPF)
  44. Compression mode : Lossy
  45. Stream size : 504 MiB (3%)
  46. Language : English
  47. Service kind : Complete Main
  48. Default : Yes
  49. Forced : No
  50. Complexity index : 16
  51. Number of dynamic objects : 15
  52. Bed channel count : 1 channel
  53. Bed channel configuration : LFE

  54. Text #1
  55. ID : 3
  56. Format : UTF-8
  57. Codec ID : S_TEXT/UTF8
  58. Codec ID/Info : UTF-8 Plain Text
  59. Duration : 1 h 30 min
  60. Bit rate : 103 b/s
  61. Count of elements : 1092
  62. Stream size : 68.7 KiB (0%)
  63. Title : العربية
  64. Language : Arabic
  65. Default : No
  66. Forced : No

  67. Text #2
  68. ID : 4
  69. Format : UTF-8
  70. Codec ID : S_TEXT/UTF8
  71. Codec ID/Info : UTF-8 Plain Text
  72. Duration : 1 h 30 min
  73. Bit rate : 83 b/s
  74. Count of elements : 1001
  75. Stream size : 55.4 KiB (0%)
  76. Title : български
  77. Language : Bulgarian
  78. Default : No
  79. Forced : No

  80. Text #3
  81. ID : 5
  82. Format : UTF-8
  83. Codec ID : S_TEXT/UTF8
  84. Codec ID/Info : UTF-8 Plain Text
  85. Duration : 1 h 30 min
  86. Bit rate : 55 b/s
  87. Count of elements : 1079
  88. Stream size : 36.8 KiB (0%)
  89. Title : Čeština
  90. Language : Czech
  91. Default : No
  92. Forced : No

  93. Text #4
  94. ID : 6
  95. Format : UTF-8
  96. Codec ID : S_TEXT/UTF8
  97. Codec ID/Info : UTF-8 Plain Text
  98. Duration : 1 h 30 min
  99. Bit rate : 50 b/s
  100. Count of elements : 1078
  101. Stream size : 33.7 KiB (0%)
  102. Title : dansk
  103. Language : Danish
  104. Default : No
  105. Forced : No

  106. Text #5
  107. ID : 7
  108. Format : UTF-8
  109. Codec ID : S_TEXT/UTF8
  110. Codec ID/Info : UTF-8 Plain Text
  111. Duration : 1 h 30 min
  112. Bit rate : 62 b/s
  113. Count of elements : 985
  114. Stream size : 41.7 KiB (0%)
  115. Title : Deutsch
  116. Language : German
  117. Default : No
  118. Forced : No

  119. Text #6
  120. ID : 8
  121. Format : UTF-8
  122. Codec ID : S_TEXT/UTF8
  123. Codec ID/Info : UTF-8 Plain Text
  124. Duration : 1 h 30 min
  125. Bit rate : 103 b/s
  126. Count of elements : 1090
  127. Stream size : 69.0 KiB (0%)
  128. Title : Ελληνικά
  129. Language : Greek
  130. Default : No
  131. Forced : No

  132. Text #38
  133. ID : 40
  134. Format : UTF-8
  135. Codec ID : S_TEXT/UTF8
  136. Codec ID/Info : UTF-8 Plain Text
  137. Duration : 1 h 30 min
  138. Bit rate : 57 b/s
  139. Count of elements : 1095
  140. Stream size : 38.2 KiB (0%)
  141. Title : 廣東話
  142. Language : Chinese
  143. Default : No
  144. Forced : No

  145. Text #39
  146. ID : 41
  147. Format : UTF-8
  148. Codec ID : S_TEXT/UTF8
  149. Codec ID/Info : UTF-8 Plain Text
  150. Duration : 1 h 30 min
  151. Bit rate : 56 b/s
  152. Count of elements : 1095
  153. Stream size : 37.6 KiB (0%)
  154. Title : 中文(繁體)
  155. Language : Chinese
  156. Default : No
  157. Forced : No

  158. Text #40
  159. ID : 42
  160. Format : UTF-8
  161. Codec ID : S_TEXT/UTF8
  162. Codec ID/Info : UTF-8 Plain Text
  163. Duration : 1 h 30 min
  164. Bit rate : 53 b/s
  165. Count of elements : 1092
  166. Stream size : 35.7 KiB (0%)
  167. Title : 中文(简体)
  168. Language : Chinese
  169. Default : No
  170. Forced : No
复制代码

怒海战舰(台) / 雷霆战舰:猎犬号(港) / 灰狗/灰猎犬号4K Greyhound.2020.2160p.ATVP.WEB-DL.x265.10bit.HDR.DDP5.1.Atmos电影下载[/size
灰猎犬号4K Greyhound.2020.2160p.ATVP.WEB-DL.x265.10bit.HDR.DDP5.1.Atmos【15.81 GB】
[Hao4k]灰猎犬号4K Greyhound.2020.2160p.ATVP.WEB-DL.x265.10bit.HDR.DDP5.1.Atmos-N.torrent (79.72 KB, 下载次数: 6745, 售价: 3 K币)
回复

使用道具 举报

a62319866 发表于 2020-10-10 13:51:52

a62319866 448#

2020-10-10 13:51:52

昨天看了,很棒!!!
回复 支持 反对

使用道具 举报

兜兜转呀转 发表于 2020-10-10 13:02:55 Hao4K手机版

兜兜转呀转 447#

2020-10-10 13:02:55

好东西,谢谢分享
回复 支持 反对

使用道具 举报

雨中阳光9022 发表于 2020-10-10 02:41:07

雨中阳光9022 446#

2020-10-10 02:41:07

寻找最好的版本下载
回复 支持 反对

使用道具 举报

闲中静坐 发表于 2020-10-6 23:40:04

闲中静坐 445#

2020-10-6 23:40:04

感谢楼主分享
回复 支持 反对

使用道具 举报

gamile 发表于 2020-10-5 00:03:58

gamile 444#

2020-10-5 00:03:58

感谢分享好片子
回复 支持 反对

使用道具 举报

pangzy 发表于 2020-10-4 15:40:16

pangzy 443#

2020-10-4 15:40:16

很不错的电影 值得收藏
回复 支持 反对

使用道具 举报

ejime 发表于 2020-10-2 22:10:29

ejime 442#

2020-10-2 22:10:29

很不错的电影 值得收藏
回复 支持 反对

使用道具 举报

x279794152 发表于 2020-9-30 19:32:59

x279794152 440#

2020-9-30 19:32:59

汤姆汉克斯新作, 看看
回复 支持 反对

使用道具 举报

qingjin9955 发表于 2020-9-27 21:18:50

qingjin9955 439#

2020-9-27 21:18:50

这个大小合适呀
回复 支持 反对

使用道具 举报

hhdjhhdj 发表于 2020-9-27 20:59:41

hhdjhhdj 438#

2020-9-27 20:59:41

好东东,感谢分享
回复 支持 反对

使用道具 举报

刚睡醒 发表于 2020-9-26 23:22:39

刚睡醒 437#

2020-9-26 23:22:39

这个看过了,战斗场面少点,潜艇爱好者才看得懂~~
回复 支持 反对

使用道具 举报

一根毛 发表于 2020-9-26 20:08:39

一根毛 436#

2020-9-26 20:08:39

好东东,感谢分享
回复 支持 反对

使用道具 举报

ZJW7677 发表于 2020-9-26 16:59:03

ZJW7677 435#

2020-9-26 16:59:03


好东西,感谢分享
回复 支持 1 反对 0

使用道具 举报

猛禽出没 发表于 2020-9-25 21:41:36

猛禽出没 434#

2020-9-25 21:41:36

什么玩意,声音完全对不上,下的字幕也用不了,
回复 支持 反对

使用道具 举报

tianxu311 发表于 2020-9-24 16:28:14

tianxu311 432#

2020-9-24 16:28:14


好电影顶一个
回复 支持 反对

使用道具 举报

发表回复

您需要登录后才可以回帖 登录 | 立即注册

返回列表 本版积分规则